New version of La Tutora 2016

 

$12.00

Comes on Region Free DVD-R

Category:

Description

New version of La Tutora 2016

New version uploaded to Nitroflare and Ausfile (La Tutora 2016)

Example screenshot from the new version:

Movie thumbnail:

Technical information:

Format : MPEG-4
Format profile : QuickTime
Codec ID : qt 0000.00 (qt )
File size : 3.45 GiB
Duration : 1 h 54 min
Overall bit rate mode : Variable
Overall bit rate : 4 312 kb/s
Movie name : full film
Album/Performer : Ivan Noel
Description : This video is about full film
Encoded date : UTC 2016-08-15 15:09:51
Tagged date : UTC 2016-08-15 16:05:10
Video
ID : 2
Format : AVC
Format/Info : Advanced Video Codec
Format profile : [email protected]
Format settings : CABAC / 2 Ref Frames
Format settings, CABAC : Yes
Format settings, RefFrames : 2 frames
Codec ID : avc1
Codec ID/Info : Advanced Video Coding
Duration : 1 h 54 min
Bit rate mode : Variable
Bit rate : 4 118 kb/s
Maximum bit rate : 768 kb/s
Width : 1 920 pixels
Height : 804 pixels
Display aspect ratio : 2.40:1
Frame rate mode : Constant
Frame rate : 23.976 (24000/1001) FPS
Original frame rate : 25.000 FPS
Color space : YUV
Chroma subsampling : 4:2:0
Bit depth : 8 bits
Scan type : Progressive
Bits/(Pixel*Frame) : 0.111
Stream size : 3.29 GiB (96%)
Audio
ID : 1
Format : AAC
Format/Info : Advanced Audio Codec
Format profile : LC
Codec ID : mp4a-40-2
Duration : 1 h 54 min
Source duration : 1 h 54 min
Bit rate mode : Constant
Bit rate : 192 kb/s
Channel(s) : 2 channels
Channel positions : Front: L R
Sampling rate : 48.0 kHz
Frame rate : 46.875 FPS (1024 SPF)
Compression mode : Lossy
Stream size : 155 MiB (4%)
Source stream size : 155 MiB (4%)

Click here for the original post and for the movie download: La Tutora 2016

Storyline:
Mona picks up her first job tutoring two orphaned children living in a derelict house in the country. Her obsession with trying to educate these two nearly feral children blind her to the fact they have other plans for her.

Reviews

There are no reviews yet.

Be the first to review “New version of La Tutora 2016”

Your email address will not be published. Required fields are marked *

Report This Product

0

Your Cart

Secured By miniOrange